Video player with audio switching (GTVBox/ViMu Player)

Talk about apps goes here.
tamanaco
Android 1.0
Posts: 25
Joined: Mon Aug 01, 2011 7:17 pm

Re: Video player with audio switching (GTVBox/ViMu Player)

Post by tamanaco »

Here is another file in .avi format that plays the sound track, displays the .srt subtitles, but all I get for video is a black screen. Anything unusual or not supported about this file?

General
Complete name : D:\1 - Movies\Moviename 2001\Moviename 2001.avi
Format : AVI
Format/Info : Audio Video Interleave
File size : 697 MiB
Duration : 1h 33mn
Overall bit rate mode : Variable
Overall bit rate : 1 046 Kbps
Writing application : VirtualDubMod 1.5.10.1 (build 2424/release)
Writing library : VirtualDubMod build 2424/release

Video
ID : 0
Format : MPEG-4 Visual
Format profile : Advanced [email protected]
Format settings, BVOP : 2
Format settings, QPel : No
Format settings, GMC : 3 warppoints
Format settings, Matrix : Default (H.263)
Muxing mode : Packed bitstream
Codec ID : XVID
Codec ID/Hint : XviD
Duration : 1h 33mn
Bit rate : 907 Kbps
Width : 656 pixels
Height : 272 pixels
Display aspect ratio : 2.40:1
Frame rate : 25.000 fps
Color space : YUV
Chroma subsampling : 4:2:0
Bit depth : 8 bits
Scan type : Progressive
Compression mode : Lossy
Bits/(Pixel*Frame) : 0.203
Stream size : 604 MiB (87%)
Writing library : XviD 1.0.2 (UTC 2004-08-29)

Audio
ID : 1
Format : MPEG Audio
Format version : Version 1
Format profile : Layer 3
Mode : Joint stereo
Codec ID : 55
Codec ID/Hint : MP3
Duration : 1h 33mn
Bit rate mode : Variable
Bit rate : 128 Kbps
Channel(s) : 2 channels
Sampling rate : 48.0 KHz
Compression mode : Lossy
Delay relative to video : 2s 856ms
Stream size : 84.4 MiB (12%)
Alignment : Split accross interleaves
Interleave, duration : 24 ms (0.60 video frame)
Interleave, preload duration : 1529 ms
Writing library : LAME3.90.
Encoding settings : -m j -V 4 -q 2 -lowpass 17.6 --abr 128
mcd2000
Ice Cream Sandwich
Posts: 459
Joined: Wed Aug 03, 2011 5:52 am
GTV Device Owned: Vizio Co-Star
Location: Russia, Saint-Petersburg
Contact:

Re: Video player with audio switching (GTVBox/ViMu Player)

Post by mcd2000 »

tamanaco wrote:Here is another file in .avi format that plays the sound track, displays the .srt subtitles, but all I get for video is a black screen. Anything unusual or not supported about this file?

General
Complete name : D:\1 - Movies\Moviename 2001\Moviename 2001.avi
Format : AVI
Format/Info : Audio Video Interleave
File size : 697 MiB
Duration : 1h 33mn
Overall bit rate mode : Variable
Overall bit rate : 1 046 Kbps
Writing application : VirtualDubMod 1.5.10.1 (build 2424/release)
Writing library : VirtualDubMod build 2424/release

Video
ID : 0
Format : MPEG-4 Visual
Format profile : Advanced [email protected]
Format settings, BVOP : 2
Format settings, QPel : No
Format settings, GMC : 3 warppoints
Format settings, Matrix : Default (H.263)
Muxing mode : Packed bitstream
Codec ID : XVID
Codec ID/Hint : XviD
Duration : 1h 33mn
Bit rate : 907 Kbps
Width : 656 pixels
Height : 272 pixels
Display aspect ratio : 2.40:1
Frame rate : 25.000 fps
Color space : YUV
Chroma subsampling : 4:2:0
Bit depth : 8 bits
Scan type : Progressive
Compression mode : Lossy
Bits/(Pixel*Frame) : 0.203
Stream size : 604 MiB (87%)
Writing library : XviD 1.0.2 (UTC 2004-08-29)
I'm staring to think, that Revue do not play "Format profile : Advanced [email protected]". I'll check this on the Revue. 1st gen Sony and 2nd gen units do not have problems with that..
ViMu Player
ViMu/GTVBox Google+ page
My devices: Logitech Revue, Sony NSZ-GT1, Sony NSZ-GS7, Vizio Co-Star, Hisense Pulse (rooted), ASUS Qube and some others...
maggisha
Android 1.0
Posts: 10
Joined: Wed Jun 27, 2012 6:12 pm
GTV Device Owned: NSZ-GT1 (Bluray Player)

Re: Video player with audio switching (GTVBox/ViMu Player)

Post by maggisha »

All of a sudden my SMB shares are not working. I get SMB Exception 0x0C000009A.
I can see the shares from my win 8 laptop (Shares are created on my desktop)

Any advise?

thanks,
maggisha
Android 1.0
Posts: 10
Joined: Wed Jun 27, 2012 6:12 pm
GTV Device Owned: NSZ-GT1 (Bluray Player)

Re: Video player with audio switching (GTVBox/ViMu Player)

Post by maggisha »

All of a sudden my SMB shares are not working. I get SMB Exception 0x0C000009A.
I can see the shares from my win 8 laptop (Shares are created on my desktop)

Any advise?

thanks,
maggisha
Android 1.0
Posts: 10
Joined: Wed Jun 27, 2012 6:12 pm
GTV Device Owned: NSZ-GT1 (Bluray Player)

Re: Video player with audio switching (GTVBox/ViMu Player)

Post by maggisha »

I tried uninstalling and reinstalling the App.
Added the share manually as it still doesn't list the network shares.
I got a message saying "runtime plain password are not allowed" or something and it just hangs for ever with busy icon!
mcd2000
Ice Cream Sandwich
Posts: 459
Joined: Wed Aug 03, 2011 5:52 am
GTV Device Owned: Vizio Co-Star
Location: Russia, Saint-Petersburg
Contact:

Re: Video player with audio switching (GTVBox/ViMu Player)

Post by mcd2000 »

maggisha wrote:I tried uninstalling and reinstalling the App.
Added the share manually as it still doesn't list the network shares.
I got a message saying "runtime plain password are not allowed" or something and it just hangs for ever with busy icon!
It is mostly Windows issue. Maybe you've reived some update.
ViMu Player
ViMu/GTVBox Google+ page
My devices: Logitech Revue, Sony NSZ-GT1, Sony NSZ-GS7, Vizio Co-Star, Hisense Pulse (rooted), ASUS Qube and some others...
maggisha
Android 1.0
Posts: 10
Joined: Wed Jun 27, 2012 6:12 pm
GTV Device Owned: NSZ-GT1 (Bluray Player)

Re: Video player with audio switching (GTVBox/ViMu Player)

Post by maggisha »

Yes, the very old saying "Shut up and Reboot" resolved the issue. Thank you.
psyop
Android 1.0
Posts: 1
Joined: Tue Feb 12, 2013 11:01 pm
GTV Device Owned: Logitech Revue

Re: Video player with audio switching (GTVBox/ViMu Player)

Post by psyop »

Smb shares haven't worked for me for about 5 months. I use a dlink 323 nas, which worked very well with the software then suddenly stopped.

The nas configuration hasn't changed, and still works fine with every other device on my network. With the app all I get is "resource cannot be displayed".

Tried the usual reinstalling, restart nas, restart revue, open shares, different accounts, different shares. Same thing every time.
mcd2000
Ice Cream Sandwich
Posts: 459
Joined: Wed Aug 03, 2011 5:52 am
GTV Device Owned: Vizio Co-Star
Location: Russia, Saint-Petersburg
Contact:

Re: Video player with audio switching (GTVBox/ViMu Player)

Post by mcd2000 »

psyop wrote:With the app all I get is "resource cannot be displayed".
Does it provide a error code in brackets?
ViMu Player
ViMu/GTVBox Google+ page
My devices: Logitech Revue, Sony NSZ-GT1, Sony NSZ-GS7, Vizio Co-Star, Hisense Pulse (rooted), ASUS Qube and some others...
maggisha
Android 1.0
Posts: 10
Joined: Wed Jun 27, 2012 6:12 pm
GTV Device Owned: NSZ-GT1 (Bluray Player)

Re: Video player with audio switching (GTVBox/ViMu Player)

Post by maggisha »

Can we add a file with streaming URL in it, then open the file to stream the video, instead of using "Open Network URL Link" option?
I've many online streaming links, but dont want to type it in each time via "Open Network URL" link.

Please advise, if there are any other options available.
Post Reply